[Login] or [Signup]
Login
Username:
Password:
[Signup]
[Recover Account]


Poll


You must be logged in to view polls



Torrent Details For "Laal Rang 2016 Hindi WEB-HD Untouched 720p - Hon3y"

Laal Rang 2016 Hindi WEB-HD Untouched 720p - Hon3y

Download this torrent | Magnet Download
Health:
Seeds: 12
Leechers: 13
Completed: 916 
Last Checked: 19-09-2017 22:31:38
External Torrent
Update Stats
Download Magnet


Poster


Watch-Free-HD     Download

Details
Name:Laal Rang 2016 Hindi WEB-HD Untouched 720p - Hon3y
Description:




Laal Rang (2016) WEB-HD Untouched 720p Hon3yHD


Format                      : Matroska
File size                   : 2.01 GiB
Duration                    : 2 h 23 min
Overall bit rate            : 2 012 kb/s

Video
ID                          : 1
Format                      : AVC
Format/Info                 : Advanced Video Codec
Format profile              : [email protected]
Format settings, CABAC      : Yes
Format settings, ReFrames   : 1 frame
Format settings, GOP        : M=1, N=25
Codec ID                    : V_MPEG4/ISO/AVC
Duration                    : 2 h 23 min
Bit rate mode               : Constant
Bit rate                    : 1 884 kb/s
Nominal bit rate            : 2 000 kb/s
Width                       : 1 280 pixels
Height                      : 720 pixels
Display aspect ratio        : 16:9
Frame rate mode             : Constant
Frame rate                  : 25.000 FPS
Stream size                 : 1.88 GiB (94%)

Audio
ID                          : 2
Format                      : AAC
Format/Info                 : Advanced Audio Codec
Format profile              : LC
Codec ID                    : A_AAC
Duration                    : 2 h 23 min
Bit rate                    : 125 kb/s
Channel(s)                  : 2 channels
Channel positions           : Front: L R
Sampling rate               : 48.0 kHz
Frame rate                  : 46.875 FPS (1024 spf)
Stream size                 : 128 MiB (6%)



                       
Category:Movies > Bollywood
Lang:Hindi
Total Size:2.01 GB
Info Hash:d8bb0ffddf91ba1301aedd4b803b0ee2fd69f2a6
Added By:Hon3y
Date Added:27-03-2017 23:54:37
Views:1,063
Hits:189

Download Torrent

Ratings:Not Yet Rated (Log in to rate it)


Tracker:
udp://tracker.coppersurfer.tk:6969/announce


File List: 


Comments

<< Previous      Next >>
1 - 1

[Report] Posted: 28-03-2017 at 04:06:06
mrrobot



Uploaded: 0.00 B
Downloaded: 0.00 B
Ratio: ---

Plz Upload this movie in 1080p

One of my Favourite Movie...

Must Watch Movie !!!

Thanks @Hon3y

1 - 1
<< Previous      Next >>


Powered by 10 Hamsters v2-svn -|- Page Generated In 2.130104 secs.
-|- RSS FEED
Theme By: Nikkbu