[Login] or [Signup]
Login
Username:
Password:
[Signup]
[Recover Account]


Poll


You must be logged in to view polls



Torrent Details For "Breaking.Bad.The.Movie.2017.HDRip.720p.x264-HEFF"

Breaking.Bad.The.Movie.2017.HDRip.720p.x264-HEFF

Download this torrent | Magnet Download
Health:
Seeds: 10
Leechers: 7
Completed: 126,131 
Last Checked: 09-11-2018 23:19:45
External Torrent
Update Stats
Download Magnet


Poster


Watch-Free-HD     Download

Details
Name:Breaking.Bad.The.Movie.2017.HDRip.720p.x264-HEFF
Description:
XMovies8:  http://xmovies8.life/movie/breaking-bad-the-movie-2017/
Donate Us: bitcoin:17HBPWiAcvh9GFcZPg1ebvBXbnJDE3oxut

File Info

General
Complete name                            : Breaking.Bad.The.Movie.2017.HDRip.720p.x264-HEFF.mp4
Format                                   : MPEG-4
Format profile                           : Base Media
Codec ID                                 : isom (isom/iso2/avc1/mp41)
File size                                : 2.51 GiB
Duration                                 : 2 h 7 min
Overall bit rate                         : 2 823 kb/s

Video
ID                                       : 1
Format                                   : AVC
Format/Info                              : Advanced Video Codec
Format profile                           : [email protected]
Format settings, CABAC                   : Yes
Format settings, ReFrames                : 4 frames
Codec ID                                 : avc1
Codec ID/Info                            : Advanced Video Coding
Duration                                 : 2 h 7 min
Bit rate                                 : 2 700 kb/s
Width                                    : 1 280 pixels
Height                                   : 536 pixels
Display aspect ratio                     : 2.40:1
Frame rate mode                          : Constant
Frame rate                               : 23.976 (23976/1000) FPS
Chroma subsampling                       : 4:2:0
Bit depth                                : 8 bits
Scan type                                : Progressive
Bits/(Pixel*Frame)                       : 0.164
Stream size                              : 2.39 GiB (95%)
Writing library                          : x264 core 148

Audio
ID                                       : 2
Format                                   : AAC
Format/Info                              : Advanced Audio Codec
Format profile                           : LC
Codec ID                                 : 40
Duration                                 : 2 h 7 min
Bit rate mode                            : Constant
Bit rate                                 : 132 kb/s
Channel(s)                               : 2 channels
Channel positions                        : Front: L R
Sampling rate                            : 48.0 kHz
Frame rate                               : 46.875 FPS (1024 spf)
Compression mode                         : Lossy
Stream size                              : 118 MiB (5%)
Category:Movies > HDRips
Lang:English  English
Total Size:2.51 GB
Info Hash:bc7a068846d363d554da97bf97ed91efdc1cda5b
Added By:pheonix83
Date Added:27-03-2017 23:29:17
Views:708
Hits:88

Download Torrent

Ratings:Not Yet Rated (Log in to rate it)

  


Tracker:
udp://tracker.opentrackr.org:1337/announce


File List: 


Comments

No comments still posted

Powered by 10 Hamsters v2-svn -|- Page Generated In 0.055073 secs.
-|- RSS FEED
Theme By: Nikkbu