[Login] or [Signup]
Login
Username:
Password:
[Signup]
[Recover Account]


Poll


You must be logged in to view polls



Torrent Details For "Resident.Evil.The.Final.Chapter.2017.BluRay.720p.x264-HEFF"

Resident.Evil.The.Final.Chapter.2017.BluRay.720p.x264-HEFF

Download this torrent | Magnet Download
Health:
Seeds: 30
Leechers: 85
Completed: 25,940 
Last Checked: 20-09-2017 11:23:53
External Torrent
Update Stats
Download Magnet


Poster


Watch-Free-HD     Download

Details
Name:Resident.Evil.The.Final.Chapter.2017.BluRay.720p.x264-HEFF
Description:
IMDb:  http://www.imdb.com/title/tt2592614/
Donate Us: bitcoin:17HBPWiAcvh9GFcZPg1ebvBXbnJDE3oxut

File Info

General
Complete name                            : Resident.Evil.The.Final.Chapter.2017.BluRay.720p.x264-HEFF.mp4
Format                                   : MPEG-4
Format profile                           : Base Media
Codec ID                                 : isom (isom/iso2/avc1/mp41)
File size                                : 2.10 GiB
Duration                                 : 1 h 46 min
Overall bit rate                         : 2 818 kb/s

Video
ID                                       : 1
Format                                   : AVC
Format/Info                              : Advanced Video Codec
Format profile                           : [email protected]
Format settings, CABAC                   : Yes
Format settings, ReFrames                : 4 frames
Codec ID                                 : avc1
Codec ID/Info                            : Advanced Video Coding
Duration                                 : 1 h 46 min
Bit rate                                 : 2 700 kb/s
Width                                    : 1 280 pixels
Height                                   : 536 pixels
Display aspect ratio                     : 2.40:1
Frame rate mode                          : Constant
Frame rate                               : 23.976 (23976/1000) FPS
Chroma subsampling                       : 4:2:0
Bit depth                                : 8 bits
Scan type                                : Progressive
Bits/(Pixel*Frame)                       : 0.164
Stream size                              : 2.00 GiB (95%)
Writing library                          : x264 core 148

Audio
ID                                       : 2
Format                                   : AAC
Format/Info                              : Advanced Audio Codec
Format profile                           : LC
Codec ID                                 : 40
Duration                                 : 1 h 46 min
Bit rate mode                            : Constant
Bit rate                                 : 128 kb/s
Channel(s)                               : 2 channels
Channel(s)_Original                      : 6 channels
Channel positions                        : Front: L C R, Side: L R, LFE
Sampling rate                            : 48.0 kHz
Frame rate                               : 46.875 FPS (1024 spf)
Compression mode                         : Lossy
Stream size                              : 97.9 MiB (5%)
Category:Movies > 720P Bluray
Lang:English  English
Total Size:2.10 GB
Info Hash:45c3d53f0eb30bfab299b64c96483835589b729e
Added By:pheonix83
Date Added:27-03-2017 23:19:14
Views:689
Hits:111

Download Torrent

Ratings:Not Yet Rated (Log in to rate it)

  


Tracker:
udp://tracker.opentrackr.org:1337/announce


File List: 


Comments

No comments still posted

Powered by 10 Hamsters v2-svn -|- Page Generated In 0.003016 secs.
-|- RSS FEED
Theme By: Nikkbu