[Login] or [Signup]
Login
Username:
Password:
[Signup]
[Recover Account]


Poll


You must be logged in to view polls



Torrent Details For "Khaidi No.150 (2017) Telugu WebHD 1080p x264 AC3 2.0...Hon3y"

Khaidi No.150 (2017) Telugu WebHD 1080p x264 AC3 2.0...Hon3y

Download this torrent | Magnet Download
Health:
Seeds: 0
Leechers: 0
Completed: 1,547 
Last Checked: 20-09-2017 01:55:39
External Torrent
Update Stats
Download Magnet


Poster


Watch-Free-HD     Download

Details
Name:Khaidi No.150 (2017) Telugu WebHD 1080p x264 AC3 2.0...Hon3y
Description:




Khaidi No.150 (2017) Telugu WebHD 1080p x264 AC3 2.0...Hon3y

General
Format                                   : Matroska
Format version                           : Version 4 / Version 2
File size                                : 3.00 GiB
Duration                                 : 2 h 19 min
Overall bit rate                         : 3 073 kb/s
Movie name                               : Khaidi No [email protected]

Video
Format                                   : AVC
Format/Info                              : Advanced Video Codec
Format profile                           : [email protected]
Format settings, CABAC                   : Yes
Format settings, ReFrames                : 5 frames
Codec ID                                 : V_MPEG4/ISO/AVC
Duration                                 : 2 h 19 min
Bit rate                                 : 2 879 kb/s
Width                                    : 1 920 pixels
Height                                   : 816 pixels
Display aspect ratio                     : 2.35:1
Frame rate mode                          : Constant
Frame rate                               : 25.000 FPS
Color space                              : YUV
Chroma subsampling                       : 4:2:0
Bit depth                                : 8 bits
Scan type                                : Progressive
Bits/(Pixel*Frame)                       : 0.074
Stream size                              : 2.81 GiB (94%)
Title                                    : Khaidi No [email protected]

Audio
Format                                   : AC-3
Format/Info                              : Audio Coding 3
Format settings, Endianness              : Big
Codec ID                                 : A_AC3
Duration                                 : 2 h 19 min
Bit rate mode                            : Constant
Bit rate                                 : 192 kb/s
Channel(s)                               : 2 channels
Channel positions                        : Front: L R
Sampling rate                            : 48.0 kHz
Frame rate                               : 31.250 FPS (1536 spf)
Bit depth                                : 16 bits
Compression mode                         : Lossy
Stream size                              : 192 MiB (6%)
Title                                    : [email protected]
Language                                 : Telugu
Service kind                             : Complete Main
Default                                  : Yes
Forced                                   : No

                       
Category:Movies > Telugu
Lang:Telugu
Total Size:3.00 GB
Info Hash:7d195980631e6d091d987b8f97ab758b0e38b7d0
Added By:Hon3y
Date Added:27-03-2017 20:46:13
Views:794
Hits:162

Download Torrent

Ratings:Not Yet Rated (Log in to rate it)


Tracker:
udp://tracker.coppersurfer.tk:6969/announce


File List: 


Comments

<< Previous      Next >>
1 - 1

[Report] Posted: 27-03-2017 at 21:08:06
Rajakhan



Uploaded: 0.00 B
Downloaded: 0.00 B
Ratio: ---

love you Bollywood and Hollywood king   :love

1 - 1
<< Previous      Next >>


Powered by 10 Hamsters v2-svn -|- Page Generated In 1.987164 secs.
-|- RSS FEED
Theme By: Nikkbu