[Login] or [Signup]
Login
Username:
Password:
[Signup]
[Recover Account]


Poll


You must be logged in to view polls



Torrent Details For "Thor Ragnarok (2017) 3D SBS 1080p BluRay x264 Dual Audio [Hindi 5.1 + English 5.1]"

Thor Ragnarok (2017) 3D SBS 1080p BluRay x264 Dual Audio [Hindi 5.1 + English 5.1]

Download this torrent | Magnet Download
Health:
Seeds: 55
Leechers: 43
Completed: 99,053 
Last Checked: 23-10-2018 10:54:17
External Torrent
Update Stats
Download Magnet


Poster


iMDB
Imdb Picture Title: Thor: Ragnarok
Year: 2017
Runtime: 130 minutes
Votes: 20451
Rating: 8.3/10
Language: English
Country: USA
All Genres: Action, Adventure, Comedy, Sci-Fi
Plot Outline: Imprisoned, the mighty Thor finds himself in a lethal gladiatorial contest against the Hulk, his former ally. Thor must fight for survival and race against time to prevent the all-powerful Hela from destroying his home and the Asgardian civilization.
Tagline: No Hammer. No Problem.
Director: Taika Waititi
Writing By: Eric Pearson,Craig Kyle,Christopher Yost,Stan Lee,Larry Lieber,Jack Kirby,
Produced By: Victoria Alonso,Brian Chapek,Louis D'Esposito,Kevin Feige,Thomas M. Hammel,Stan Lee,Brad Winderbaum,
Music: Mark Mothersbaugh
Cast:
Chris Hemsworth as Thor
Tom Hiddleston as Loki
Cate Blanchett as Hela
Idris Elba as Heimdall
Jeff Goldblum as Grandmaster
Tessa Thompson as Valkyrie
Karl Urban as Skurge
Mark Ruffalo as Bruce Banner / Hulk
Anthony Hopkins as Odin
Benedict Cumberbatch as Doctor Strange
Trailers:
Contender Spot
Trailer 1
Comic-Con Trailer
Teaser Trailer


Watch-Free-HD     Download

Details
Name:Thor Ragnarok (2017) 3D SBS 1080p BluRay x264 Dual Audio [Hindi 5.1 + English 5.1]
Description:




Format                      : Matroska
Format version              : Version 4 / Version 2
File size                   : 3.39 GiB
Duration                    : 2 h 10 min
Overall bit rate            : 3 718 kb/s
Encoded date                : UTC 2018-03-03 07:59:55
Writing application         : mkvmerge v7.0.0 ('Where We Going') 64bit built on Jun  9 2014 15:16:27
Writing library             : libebml v1.3.0 + libmatroska v1.4.1
Attachments                 : 615f8407a6a2ef06fc5e8b75cad07129.jpg

Video
ID                          : 1
Format                      : AVC
Format/Info                 : Advanced Video Codec
Format profile              : [email protected]
Format settings             : CABAC / 4 Ref Frames
Format settings, CABAC      : Yes
Format settings, ReFrames   : 4 frames
Format settings, GOP        : M=1, N=3
Codec ID                    : V_MPEG4/ISO/AVC
Duration                    : 2 h 10 min
Bit rate                    : 2 565 kb/s
Width                       : 1 894 pixels
Height                      : 1 012 pixels
Display aspect ratio        : 1.85:1
Frame rate mode             : Constant
Frame rate                  : 23.976 (24000/1001) FPS
Color space                 : YUV
Chroma subsampling          : 4:2:0
Bit depth                   : 8 bits
Scan type                   : Progressive
Bits/(Pixel*Frame)          : 0.056
Stream size                 : 2.34 GiB (69%)
Writing library             : x264 core 148 r2708 86b7198
Default                     : Yes
Forced                      : No
Color range                 : Limited
Color primaries             : BT.709
Transfer characteristics    : BT.709
Matrix coefficients         : BT.709

Audio #1
ID                          : 2
Format                      : AAC
Format/Info                 : Advanced Audio Codec
Format profile              : LC
Codec ID                    : A_AAC-2
Duration                    : 2 h 10 min
Bit rate                    : 278 kb/s
Channel(s)                  : 6 channels
Channel positions           : Front: L C R, Side: L R, LFE
Sampling rate               : 44.1 kHz
Frame rate                  : 43.066 FPS (1024 SPF)
Compression mode            : Lossy
Delay relative to video     : -21 ms
Stream size                 : 259 MiB (7%)
Language                    : Hindi
Default                     : Yes
Forced                      : No

Audio #2
ID                          : 3
Format                      : AAC
Format/Info                 : Advanced Audio Codec
Format profile              : LC
Codec ID                    : A_AAC-2
Duration                    : 2 h 10 min
Bit rate                    : 873 kb/s
Channel(s)                  : 6 channels
Channel positions           : Front: L C R, Side: L R, LFE
Sampling rate               : 48.0 kHz
Frame rate                  : 46.875 FPS (1024 SPF)
Compression mode            : Lossy
Delay relative to video     : -21 ms
Stream size                 : 815 MiB (23%)
Language                    : English
Default                     : No
Forced                      : No






                                     






Category:Movies > 3D
Lang:Hindi
Total Size:3.41 GB
Info Hash:0d5c18f976cfc165656687e9381d588425a4fa17
Added By:link2download
Date Added:05-03-2018 10:15:40
Views:1,901
Hits:206

Download Torrent

Ratings:Not Yet Rated (Log in to rate it)


Tracker:
udp://tracker.coppersurfer.tk:6969/announce


File List: 


Comments

<< Previous      Next >>
1 - 1

[Report] Posted: 16-03-2018 at 20:38:06
kuber666



Uploaded: 0.00 B
Downloaded: 0.00 B
Ratio: ---

This film is 3D, but again the quality of the encoding has gone down. :-(

1 - 1
<< Previous      Next >>


Powered by 10 Hamsters v2-svn -|- Page Generated In 3.031686 secs.
-|- RSS FEED
Theme By: Nikkbu