[Login] or [Signup]
Login
Username:
Password:
[Signup]
[Recover Account]


Poll


You must be logged in to view polls



Torrent Details For "Justice league (2017) 3D SBS 1080p BluRay x264 Dual Audio [Hind 5.1 + English 5.1]"

Justice league (2017) 3D SBS 1080p BluRay x264 Dual Audio [Hind 5.1 + English 5.1]

Download this torrent | Magnet Download
Health:
Seeds: 9
Leechers: 9
Completed: 96,069 
Last Checked: 24-11-2018 18:27:33
External Torrent
Update Stats
Download Magnet


Poster


iMDB
Imdb Picture Title: Justice League
Year: 2017
Language: English
Country: USA
All Genres: Action, Adventure, Fantasy, Sci-Fi
Plot Outline: Fueled by his restored faith in humanity and inspired by Superman's selfless act, Bruce Wayne enlists the help of his newfound ally, Diana Prince, to face an even greater enemy.
Tagline: Unite
Director: Zack Snyder
Writing By: Chris Terrio,Joss Whedon,Zack Snyder,Chris Terrio,Bob Kane,Bill Finger,William Moulton Marston,Joe Shuster,Jerry Siegel,
Produced By: Ben Affleck,Jon Berg,Wesley Coller,Jose MarĂ­a de La Puente,Finni Johannsson,Geoff Johns,Charles Roven,Deborah Snyder,Chris Terrio,Andrea Wertheim,Gregor Wilson,
Music: Danny Elfman
Cast:
Gal Gadot as Diana Prince / Wonder Woman
Robin Wright as Antiope
Jason Momoa as Arthur Curry / Aquaman
Connie Nielsen as Queen Hippolyta
Amy Adams as Lois Lane
Ben Affleck as Bruce Wayne / Batman
Ezra Miller as Barry Allen / The Flash
Amber Heard as Mera
Henry Cavill as Clark Kent / Superman
Diane Lane as Martha Kent
Trailers:
Official Heroes Trailer
Comic-Con Sneak Peek
Official Trailer
Special Comic-Con Footage


Watch-Free-HD     Download

Details
Name:Justice league (2017) 3D SBS 1080p BluRay x264 Dual Audio [Hind 5.1 + English 5.1]
Description:
[img]http://www.bestbuy.com/site/justice-league-3d-blu-ray-with-trading-cards-blu-ray-blu-ray-3d-2017/6169705.p?skuId=6169705[/img]


Format                      : Matroska
Format version              : Version 4 / Version 2
File size                   : 3.65 GiB
Duration                    : 2 h 0 min
Overall bit rate            : 4 352 kb/s
Encoded date                : UTC 2018-03-04 07:49:48
Writing application         : mkvmerge v7.0.0 ('Where We Going') 64bit built on Jun  9 2014 15:16:27
Writing library             : libebml v1.3.0 + libmatroska v1.4.1

Video
ID                          : 1
Format                      : AVC
Format/Info                 : Advanced Video Codec
Format profile              : [email protected]
Format settings             : CABAC / 4 Ref Frames
Format settings, CABAC      : Yes
Format settings, ReFrames   : 4 frames
Codec ID                    : V_MPEG4/ISO/AVC
Duration                    : 1 h 59 min
Bit rate                    : 3 874 kb/s
Width                       : 1 920 pixels
Height                      : 1 080 pixels
Display aspect ratio        : 16:9
Frame rate mode             : Constant
Frame rate                  : 23.976 (24000/1001) FPS
Color space                 : YUV
Chroma subsampling          : 4:2:0
Bit depth                   : 8 bits
Scan type                   : Progressive
Bits/(Pixel*Frame)          : 0.078
Stream size                 : 3.25 GiB (89%)
Writing library             : x264 core 148 r2708 86b7198
Default                     : Yes
Forced                      : No
Color range                 : Limited
Color primaries             : BT.709
Transfer characteristics    : BT.709
Matrix coefficients         : BT.709

Audio #1
ID                          : 2
Format                      : AAC
Format/Info                 : Advanced Audio Codec
Format profile              : LC
Codec ID                    : A_AAC-2
Duration                    : 2 h 0 min
Bit rate                    : 288 kb/s
Channel(s)                  : 6 channels
Channel positions           : Front: L C R, Side: L R, LFE
Sampling rate               : 48.0 kHz
Frame rate                  : 46.875 FPS (1024 SPF)
Compression mode            : Lossy
Delay relative to video     : -21 ms
Stream size                 : 244 MiB (7%)
Language                    : Hindi
Default                     : Yes
Forced                      : No

Audio #2
ID                          : 3
Format                      : AAC
Format/Info                 : Advanced Audio Codec
Format profile              : LC
Codec ID                    : A_AAC-2
Duration                    : 2 h 0 min
Bit rate                    : 192 kb/s
Channel(s)                  : 6 channels
Channel positions           : Front: L C R, Side: L R, LFE
Sampling rate               : 48.0 kHz
Frame rate                  : 46.875 FPS (1024 SPF)
Compression mode            : Lossy
Delay relative to video     : -21 ms
Stream size                 : 165 MiB (4%)
Language                    : English
Default                     : No
Forced                      : No





                                 






Category:Movies > 3D
Lang:Hindi
Total Size:3.67 GB
Info Hash:456d1ff2829f5162cc5917775ab394dbbc5d2938
Added By:link2download
Date Added:05-03-2018 09:54:05
Views:1,429
Hits:147

Download Torrent

Ratings:Not Yet Rated (Log in to rate it)


Tracker:
udp://tracker.coppersurfer.tk:6969/announce


File List: 


Comments

No comments still posted

Powered by 10 Hamsters v2-svn -|- Page Generated In 2.603477 secs.
-|- RSS FEED
Theme By: Nikkbu