[Login] or [Signup]
Login
Username:
Password:
[Signup]
[Recover Account]


Poll


You must be logged in to view polls



Torrent Details For "Coco (2017) 3D SBS 1080p BluRay x264 Dual Audio [Hindi 5.1 + English 5.1].-.Link2download"

Coco (2017) 3D SBS 1080p BluRay x264 Dual Audio [Hindi 5.1 + English 5.1].-.Link2download

Download this torrent | Magnet Download
Health:
Seeds: 9
Leechers: 27
Completed: 77,613 
Last Checked: 14-10-2018 16:02:28
External Torrent
Update Stats
Download Magnet


Poster


iMDB
Imdb Picture Title: Coco
Year: 2017
Runtime: 109 minutes
Votes: 14217
Rating: 9.0/10
Language: English, Spanish
Country: USA
All Genres: Animation, Adventure, Comedy, Family, Fantasy, Musical, Mystery
Plot Outline: Aspiring musician Miguel, confronted with his family's ancestral ban on music, enters the Land of the Dead to work out the mystery.
Director: Lee Unkrich
Adrian Molina
Writing By: Lee Unkrich,Jason Katz,Matthew Aldrich,Adrian Molina,Adrian Molina,Matthew Aldrich,
Produced By: Darla K. Anderson,Mary Alice Drumm,John Lasseter,
Music: Michael Giacchino
Cast:
Anthony Gonzalez as Miguel
Gael García Bernal as Héctor
Benjamin Bratt as Ernesto de la Cruz
Alanna Ubach as Mamá Imelda
Renee Victor as Abuelita
Jaime Camil as Papá
Alfonso Arau as Papá Julio
Herbert Siguenza as Tío Oscar / Tío Felipe
Gabriel Iglesias as Clerk
Lombardo Boyar as Plaza Mariachi / Gustavo
Trailers:
Official U.S. Trailer
"Find Your Voice"
Theatrical Trailer
Teaser Trailer


Watch-Free-HD     Download

Details
Name:Coco (2017) 3D SBS 1080p BluRay x264 Dual Audio [Hindi 5.1 + English 5.1].-.Link2download
Description:
[img]http://www.allyoulike.com/166441/coco-2017-3d-half-sbs-1080p-bluray-x264-dts-hd-ma-7-1/[/img]



Format                      : Matroska
Format version              : Version 4 / Version 2
File size                   : 2.45 GiB
Duration                    : 1 h 45 min
Overall bit rate            : 3 343 kb/s
Encoded date                : UTC 2018-03-02 17:07:07
Writing library             : libebml v1.3.0 + libmatroska v1.4.1
Attachments                 : 615f8407a6a2ef06fc5e8b75cad07129.jpg

Video
ID                          : 1
Format                      : AVC
Format/Info                 : Advanced Video Codec
Format profile              : [email protected]
Format settings             : CABAC / 4 Ref Frames
Format settings, CABAC      : Yes
Format settings, ReFrames   : 4 frames
Codec ID                    : V_MPEG4/ISO/AVC
Duration                    : 1 h 45 min
Bit rate                    : 2 900 kb/s
Width                       : 1 920 pixels
Height                      : 808 pixels
Display aspect ratio        : 2.40:1
Frame rate mode             : Constant
Frame rate                  : 23.976 (24000/1001) FPS
Color space                 : YUV
Chroma subsampling          : 4:2:0
Bit depth                   : 8 bits
Scan type                   : Progressive
Bits/(Pixel*Frame)          : 0.078
Stream size                 : 2.13 GiB (87%)
Writing library             : x264 core 148 r2708 86b7198
Default                     : Yes
Forced                      : No
Color range                 : Limited
Color primaries             : BT.709
Transfer characteristics    : BT.709
Matrix coefficients         : BT.709

Audio #1
ID                          : 2
Format                      : AAC
Format/Info                 : Advanced Audio Codec
Format profile              : LC
Codec ID                    : A_AAC-2
Duration                    : 1 h 45 min
Bit rate                    : 249 kb/s
Channel(s)                  : 6 channels
Channel positions           : Front: L C R, Side: L R, LFE
Sampling rate               : 44.1 kHz
Frame rate                  : 43.066 FPS (1024 SPF)
Compression mode            : Lossy
Delay relative to video     : -21 ms
Stream size                 : 187 MiB (7%)
Language                    : Hindi
Default                     : Yes
Forced                      : No

Audio #2
ID                          : 3
Format                      : AAC
Format/Info                 : Advanced Audio Codec
Format profile              : LC
Codec ID                    : A_AAC-2
Duration                    : 1 h 45 min
Bit rate                    : 192 kb/s
Channel(s)                  : 6 channels
Channel positions           : Front: L C R, Side: L R, LFE
Sampling rate               : 48.0 kHz
Frame rate                  : 46.875 FPS (1024 SPF)
Compression mode            : Lossy
Delay relative to video     : -21 ms
Stream size                 : 144 MiB (6%)
Language                    : English
Default                     : No
Forced                      : No






                 





Category:Movies > 3D
Lang:Hindi
Total Size:2.47 GB
Info Hash:db32aa014ff0cd32f5d5776e89145d9a2d885a94
Added By:link2download
Date Added:05-03-2018 09:32:20
Views:1,245
Hits:100

Download Torrent

Ratings:Not Yet Rated (Log in to rate it)


Tracker:
udp://tracker.coppersurfer.tk:6969/announce


File List: 


Comments

<< Previous      Next >>
1 - 1

[Report] Posted: 07-03-2018 at 17:16:37
prash143in



Uploaded: 0.00 B
Downloaded: 0.00 B
Ratio: ---

good work link2downlod
please try Padamavat in 3D

1 - 1
<< Previous      Next >>


Powered by 10 Hamsters v2-svn -|- Page Generated In 1.692089 secs.
-|- RSS FEED
Theme By: Nikkbu