[Login] or [Signup]
Login
Username:
Password:
[Signup]
[Recover Account]


Poll


You must be logged in to view polls



Torrent Details For "Valerian And The City Of A Thousand Planets (2017) 3D 1080p BluRay x264 Dual Audio [Hindi 5.1 ..."

Valerian And The City Of A Thousand Planets (2017) 3D 1080p BluRay x264 Dual Audio [Hindi 5.1 ...

Download this torrent | Magnet Download
Health:
Seeds: 5
Leechers: 86
Completed: 5,218 
Last Checked: 15-09-2018 01:54:56
External Torrent
Update Stats
Download Magnet


Poster


iMDB
Imdb Picture Title: Valerian and the City of a Thousand Planets
Year: 2017
Runtime: 137 minutes
Votes: 5771
Rating: 6.9/10
Language: English, French
Country: France
All Genres: Action, Adventure, Sci-Fi
Plot Outline: A dark force threatens Alpha, a vast metropolis and home to species from a thousand planets. Special operatives Valerian and Laureline must race to identify the marauding menace and safeguard not just Alpha, but the future of the universe.
Tagline: A universe without boundaries needs heroes without limits.
Director: Luc Besson
Writing By: Pierre Christin,Jean-Claude Mézières,Luc Besson,
Produced By: Luc Besson,Virginie Besson-Silla,Camille Courau,
Music: Alexandre Desplat
Plot:

VALERIAN AND THE CITY OF A THOUSAND PLANETS is the new adventure film from Luc Besson, the director of The Professional, The Fifth Element and Lucy, based on the comic book series which inspired a generation of artists, writers and filmmakers. In the 28th century, Valerian (Dane DeHaan) and Laureline (Cara Delevingne) are a team of special operatives charged with maintaining order throughout the human territories. Under assignment from the Minister of Defense, the two embark on a mission to the astonishing city of Alpha-an ever-expanding metropolis where species from all over the universe have converged over centuries to share knowledge, intelligence and cultures with each other. There is a mystery at the center of Alpha, a dark force which threatens the peaceful existence of the City of a Thousand Planets, and Valerian and Laureline must race to identify the marauding menace and safeguard not just Alpha, but the future of the universe.

In the 28th century, Valerian and Laureline are a team of special operatives charged with maintaining order throughout the human territories. Under assignment from the Minister of Defense, the two embark on a mission to the city of Alpha-an ever-expanding metropolis where species from all over the universe have converged over centuries to share knowledge, intelligence and cultures with each other. There is a mystery at the center of Alpha, a dark force which threatens the peaceful existence of the City of a Thousand Planets, and Valerian and Laureline must race to identify the marauding menace and safeguard not just Alpha, but the future of the universe.

A dark force threatens Alpha, a vast metropolis and home to species from a thousand planets. Special operatives Valerian and Laureline must race to identify the marauding menace and safeguard not just Alpha, but the future of the universe.


Cast:
Dane DeHaan as Major Valerian
Cara Delevingne as Sergeant Laureline
Clive Owen as Commander Arun Filitt
Rihanna as Bubble
Ethan Hawke as Jolly the Pimp
Herbie Hancock as Defence Minister
Kris Wu as Sergeant Neza
Sam Spruell as General Okto-Bar
Alain Chabat as Bob the Pirate
Rutger Hauer as President of the World State Federation
Trailers:
Trailer 3
Trailer #3
Trailer #2
Teaser Trailer


Watch-Free-HD     Download

Details
Name:Valerian And The City Of A Thousand Planets (2017) 3D 1080p BluRay x264 Dual Audio [Hindi 5.1 ...
Description:




Format                                   : Matroska
Format version                           : Version 4 / Version 2
File size                                : 2.78 GiB
Duration                                 : 2 h 17 min
Overall bit rate                         : 2 901 kb/s
Encoded date                             : UTC 2017-12-15 21:08:39
Writing application                      : mkvmerge v18.0.0 ('Apricity') 32-bit
Writing library                          : libebml v1.3.5 + libmatroska v1.4.8

Video
ID                                       : 1
Format                                   : AVC
Format/Info                              : Advanced Video Codec
Format profile                           : [email protected]
Format settings, CABAC                   : Yes
Format settings, ReFrames                : 4 frames
Codec ID                                 : V_MPEG4/ISO/AVC
Duration                                 : 2 h 17 min
Bit rate                                 : 2 483 kb/s
Width                                    : 1 920 pixels
Height                                   : 800 pixels
Display aspect ratio                     : 2.40:1
Frame rate mode                          : Constant
Frame rate                               : 23.976 (24000/1001) FPS
Color space                              : YUV
Chroma subsampling                       : 4:2:0
Bit depth                                : 8 bits
Scan type                                : Progressive
Bits/(Pixel*Frame)                       : 0.067
Stream size                              : 2.38 GiB (86%)
Writing library                          : x264 core 148 r2708 86b7198
Default                                  : Yes
Forced                                   : No
Color range                              : Limited
Color primaries                          : BT.709
Transfer characteristics                 : BT.709
Matrix coefficients                      : BT.709

Audio #1
ID                                       : 2
Format                                   : AAC
Format/Info                              : Advanced Audio Codec
Format profile                           : LC
Codec ID                                 : A_AAC
Duration                                 : 2 h 17 min
Bit rate                                 : 192 kb/s
Channel(s)                               : 6 channels
Channel positions                        : Front: L C R, Side: L R, LFE
Sampling rate                            : 48.0 kHz
Frame rate                               : 46.875 FPS (1024 spf)
Compression mode                         : Lossy
Delay relative to video                  : -21 ms
Stream size                              : 188 MiB (7%)
Title                                    : Surround
Language                                 : English
Default                                  : No
Forced                                   : No

Audio #2
ID                                       : 3
Format                                   : AC-3
Format/Info                              : Audio Coding 3
Format settings, Endianness              : Big
Codec ID                                 : A_AC3
Duration                                 : 2 h 16 min
Bit rate mode                            : Constant
Bit rate                                 : 224 kb/s
Channel(s)                               : 6 channels
Channel positions                        : Front: L C R, Side: L R, LFE
Sampling rate                            : 48.0 kHz
Frame rate                               : 31.250 FPS (1536 spf)
Bit depth                                : 16 bits
Compression mode                         : Lossy
Delay relative to video                  : 23 s 279 ms
Stream size                              : 219 MiB (8%)
Language                                 : Hindi
Service kind                             : Complete Main
Default                                  : Yes
Forced                                   : No






 
 
 
 
 
 
 
 
 
 




Category:Movies > 3D
Lang:Hindi
Total Size:2.78 GB
Info Hash:be40b174dde0f3e716414fd8941c992fc5a241b7
Added By:link2download
Date Added:16-12-2017 07:55:38
Views:1,646
Hits:158

Download Torrent

Ratings:Not Yet Rated (Log in to rate it)


Tracker:
http://tracker.desitorrents.com:6969/announce

This Torrent also has backup trackers
URLSeedersLeechersCompleted
http://tracker.desitorrents.com:6969/announce000
http://bigfoot1942.sektori.org:6969/announce000
http://ipv4.tracker.harry.lu:80/announce000
http://tracker.devil-torrents.pl:80/announce000
http://tracker.devil-torrents.pl/announce000
http://open.kickasstracker.com/announce210
http://open.kickasstracker.com:443/announce210
http://t.nyaatracker.com:80/announce200
http://torrentsmd.com:8080/announce100
http://mgtracker.org:6969/announce2014
http://p4p.arenabg.ch:1337/announce100
http://torrentsmd.com:8080/announce100


File List: 


Comments

<< Previous      Next >>
1 - 2

[Report] Posted: 21-12-2017 at 13:02:27
acdroid



Uploaded: 0.00 B
Downloaded: 0.00 B
Ratio: ---

please seed this torrent

[Report] Posted: 31-12-2017 at 14:01:32
prash143in



Uploaded: 0.00 B
Downloaded: 0.00 B
Ratio: ---

good work link2download

1 - 2
<< Previous      Next >>


Powered by 10 Hamsters v2-svn -|- Page Generated In 2.113425 secs.
-|- RSS FEED
Theme By: Nikkbu